Help - Search - Members - Calendar
Full Version: Xtreamer Prodigy By PPCBoy (First 3D Player)
ThaiDVD.net | Hi-DEF Blu-Ray DVD HTPC Home Theater ไฮเดฟ บลูเรย์ ดีวีดี โฮมเธียเตอร์ > .:: ETC Zone ::. > กระเป๋าแบนแฟนทิ้ง(บอร์ดซื้อขาย) > [Home Theater]สินค้าอื่นๆตั้งในห้องย่อย
Pages: 1, 2, 3, 4, 5, 6, 7, 8, 9, 10, 11, 12, 13, 14, 15, 16, 17, 18, 19, 20, 21, 22, 23, 24, 25, 26, 27, 28, 29, 30, 31, 32, 33, 34, 35, 36, 37, 38, 39, 40, 41, 42, 43, 44, 45, 46, 47, 48, 49, 50, 51, 52, 53, 54, 55, 56, 57, 58, 59, 60, 61, 62, 63, 64, 65, 66, 67, 68, 69, 70
ppcboy
QUOTE(Phuriphan @ May 25 2010, 07:55 AM) *
QUOTE(Phuriphan @ May 23 2010, 09:23 PM) *
รบกวนสอบถามคุณบอยคับ

หลังจากใช้ Xtreamer มา 3 เดือน ก็ปกติดี แต่วันนี้พบปัญหามาสอบถามคับ

ผมดูหนัง Lord of the Ring I เป็นไฟล์ mkv ได้ประมาณครึ่งเรื่องปรากฎว่าภาพเริ่มเป็น motion มีแตกพิเซลบ้าง เบลอบ้าง สลับกันไป
และที่มุมบนขวาขอจอภาพ มีอักษรสีแดงกระพริบว่า ไม่รองรับ GMC ???? มันคืออะไรคับ

ลองแก้ทั้งปิดและเปิดใหม่ก็ไม่หาย กลับไปดูเรื่องอื่นก็ปกติดี กลับมาเรื่องเดิมตำแหน่งเดิมก็เป็นอีก

msn-cry.gif


คุณบอยพอจะทราบวิธีแก้มั๊ยคับ

เพราะลองอีกกี่ครั้งก็ยังเป็นที่จุดเดิม

ยังไงรบกวนช่วยตอบด้วย rolleyes.gif rolleyes.gif rolleyes.gif


Unsupport GMC เกิดจาก GMC มีค่าเท่ากับ 3 warppoints

แต่ส่วนมากผมเห็นเป็นกับไฟล์ avi และยังไม่เคยเห็นกับ mkv
หากใช้ mediainfo ตรวจสอบจะเป็นดังนี้ครับ

Video
ID : 0
Format : MPEG-4 Visual
Format profile : Advanced Simple@L5
Format settings, BVOP : Yes
Format settings, QPel : Yes
Format settings, GMC : 3 warppoints
Format settings, Matrix : Default (MPEG)
Muxing mode : Packed bitstream
Codec ID : XVID
Codec ID/Hint :
Duration : 1h 34mn
Bit rate : 1 606 Kbps
Width : 704 pixels
Height : 384 pixels
Display aspect ratio : 16:9
Frame rate : 25.000 fps
Resolution : 8 bits
Colorimetry : 4:2:0
Scan type : Progressive
Bits/(Pixel*Frame) : 0.238
Stream size : 1.06 GiB (91%)
Writing library : XviD 1.1.0 (UTC 2005-11-22)

รบกวนขอรายละเอียดด้วย mediainfo ด้วยครับ
num052
ขอชมเชยคุณบอยหน่อยนะครับ
เมื่อวานได้รับของตอนค่ำ รีบจัดการต่อสายแต่ยังไงก็ไม่ติด โทรหาคุณบอยตอน 2 ทุ่ม คุณบอยรับทราบและรีบมาจัดการให้ เมื่อทดลองแล้วไม่ติดจริง ได้เปลี่ยนเครื่องใหม่ให้เลย พ่อค้าเอาใจใส่อย่างนี้ต้องขอชมครับ ขอให้กิจการรุ่งเรืองนะครับ คงได้เป็นลูกค้ากันอีกนาน
nonfat
whistling.gif

ไปรษณีย์มาเมื่อวานเย็น ดันออกไปข้างนอก เช้านี้เลยต้องไปรับเอง
ทุกอย่างเยบร้อยดี กำลังดู 2010 อยู่ไม่พบปัญหาอะไร ถูกใจมากครับ

rtnpsl
QUOTE(nonfat @ May 25 2010, 11:38 AM) *
whistling.gif

ไปรษณีย์มาเมื่อวานเย็น ดันออกไปข้างนอก เช้านี้เลยต้องไปรับเอง
ทุกอย่างเยบร้อยดี กำลังดู 2010 อยู่ไม่พบปัญหาอะไร ถูกใจมากครับ


2010เข้าตอนไหนเนี๊ย ไม่รู้เรื่องเลย thumbdown.gif
Neoyim
ได้รับของแล้วครับ
เดี๋ยวเย็นนี้จะรีบไปลอง kapook-9243-9853.gif
ppcboy
QUOTE(num052 @ May 25 2010, 08:51 AM) *
ขอชมเชยคุณบอยหน่อยนะครับ
เมื่อวานได้รับของตอนค่ำ รีบจัดการต่อสายแต่ยังไงก็ไม่ติด โทรหาคุณบอยตอน 2 ทุ่ม คุณบอยรับทราบและรีบมาจัดการให้ เมื่อทดลองแล้วไม่ติดจริง ได้เปลี่ยนเครื่องใหม่ให้เลย พ่อค้าเอาใจใส่อย่างนี้ต้องขอชมครับ ขอให้กิจการรุ่งเรืองนะครับ คงได้เป็นลูกค้ากันอีกนาน

wub.gif

ขอบคุณครับ อ่านแล้วทำให้มีกำลังใจมากมายครับ
ppcboy
QUOTE(rtnpsl @ May 25 2010, 12:13 PM) *
QUOTE(nonfat @ May 25 2010, 11:38 AM) *
whistling.gif

ไปรษณีย์มาเมื่อวานเย็น ดันออกไปข้างนอก เช้านี้เลยต้องไปรับเอง
ทุกอย่างเยบร้อยดี กำลังดู 2010 อยู่ไม่พบปัญหาอะไร ถูกใจมากครับ


2010เข้าตอนไหนเนี๊ย ไม่รู้เรื่องเลย thumbdown.gif


wacko.gif น่าจะพิมพ์พลาดไปครับ
ถ้าเป็น 2010 จริงๆก็เตรียมตัวครับ แพ็ค Xtreamer ใส่กล่องแล้วรีบออกไปหาเรือกัน
XXVIII
XT pro ถึงภูเก็ตแล้ว happy.gif
ppcboy
QUOTE(kopking @ May 24 2010, 06:01 PM) *
QUOTE(ppcboy @ May 24 2010, 05:03 PM) *
QUOTE(kopking @ May 24 2010, 04:48 PM) *
QUOTE(ppcboy @ May 24 2010, 04:41 PM) *
QUOTE(kopking @ May 24 2010, 11:23 AM) *
ได้ของแล้วครับคุณบอย แต่มีปัญญาเรืองสาย adapter ครับ ดังรูป



จะแก้ปัญหาอย่างไรได้บ้างครับ


รบกวนใช้ตัวนี้ไปก่อนนะครับ ถ้าผมได้อะไหล่มาจะรีบส่งเปลี่ยนตัวใหม่ให้ทันที

ขอโทษแทน Xtreamer ด้วยครับ msn-cry.gif


ครับผม ไม่เป็นไรครับ ดีที่อันนี้มันก็ใช้ได้อยู่ก็ใช้ไปก่อนรอมาแล้วค่อยส่งมาเปลี่ยนได้ครับ

แล้วอยากทราบว่า Adapter หัวแบบนี้มันมีขายทั้วไปมั้ยครับ


ไม่แน่ใจครับ
ใครเดินบ้านหม้อบ่อยๆเคยเห็นหัวแบบนี้ไหมครับ


คุณบอยครับ แล้วตัวอะไหร่ นี้อีกนานซักเท่าไหร่ครับกว่าจะมา

อัพเดตเรื่องซับครับ ทำ FS แล้ว ถ้า เราเลือกซับจาก user_font ตัว วรรณ์ยุก กับสระ ที่เป็นสองชั้นก็ยังทับกันอยู่ดีครับ

แต่ถ้า ใช้ font ที่ได้จากการ FS เลย ไม่ทับกันแล้วครับ เป็นปกติ

ท่าน kopking ครับ
ส่ง Adaptor ตัวใหม่ให้แล้วครับ






ppcboy
QUOTE(XXVIII @ May 25 2010, 01:38 PM) *
XT pro ถึงภูเก็ตแล้ว happy.gif

วันเดียวก็ถึงแล้วเยี่ยมจริงๆ laugh.gif
kopking
QUOTE(ppcboy @ May 25 2010, 01:39 PM) *
QUOTE(kopking @ May 24 2010, 06:01 PM) *
QUOTE(ppcboy @ May 24 2010, 05:03 PM) *
QUOTE(kopking @ May 24 2010, 04:48 PM) *
QUOTE(ppcboy @ May 24 2010, 04:41 PM) *
QUOTE(kopking @ May 24 2010, 11:23 AM) *
ได้ของแล้วครับคุณบอย แต่มีปัญญาเรืองสาย adapter ครับ ดังรูป



จะแก้ปัญหาอย่างไรได้บ้างครับ


รบกวนใช้ตัวนี้ไปก่อนนะครับ ถ้าผมได้อะไหล่มาจะรีบส่งเปลี่ยนตัวใหม่ให้ทันที

ขอโทษแทน Xtreamer ด้วยครับ msn-cry.gif


ครับผม ไม่เป็นไรครับ ดีที่อันนี้มันก็ใช้ได้อยู่ก็ใช้ไปก่อนรอมาแล้วค่อยส่งมาเปลี่ยนได้ครับ

แล้วอยากทราบว่า Adapter หัวแบบนี้มันมีขายทั้วไปมั้ยครับ


ไม่แน่ใจครับ
ใครเดินบ้านหม้อบ่อยๆเคยเห็นหัวแบบนี้ไหมครับ


คุณบอยครับ แล้วตัวอะไหร่ นี้อีกนานซักเท่าไหร่ครับกว่าจะมา

อัพเดตเรื่องซับครับ ทำ FS แล้ว ถ้า เราเลือกซับจาก user_font ตัว วรรณ์ยุก กับสระ ที่เป็นสองชั้นก็ยังทับกันอยู่ดีครับ

แต่ถ้า ใช้ font ที่ได้จากการ FS เลย ไม่ทับกันแล้วครับ เป็นปกติ

ท่าน kopking ครับ
ส่ง Adaptor ตัวใหม่ให้แล้วครับ








ขอบคุณครับคุณบอย บริการดีมีระดับประทับใจ thumbsup.gif thumbsup.gif
boodoopsu
รบกวนคุณบอยด้วยครับ
ผมมีปัญหากับ Wireless LAN
สายพ่วง Wireless LAN ที่ให้มา เสียบแล้วจะหลวมครับ
ต้องเอามือจับไว้ตลอด ถ้าปล่อยมือจะขึ้น Unplug ทันที

ผมเลยต้องต่อตรงโดยไม่มีสายพ่วง แต่ก็ใช้งานไม่ได้อยู่ดี
ตอนsetup มองเห็น SSID สามารถใส่ค่า WEB key ได้ แต่ไม่สามารถรับค่า IP จาก DHCP Server
ผมเลยลองใช้ Fix IP ก็ไม่สามารถใช้งานได้

และสังเกตุพบว่า LED ที่เสา Wireless ไม่ติดเลย msn-cry.gif

----------------------
ส่วนการใช้สาย LAN RJ45 สามารถใช้งานได้ปกติครับ
fozzyt
เครื่องใช้งานได้แล้วครับ ไม่มีปัญหา แต่ยังไม่ได้ลองดูผ่านhdd ลองแค่youtube แต่มันไม่ค่อยชัดเลยครับ แตกมาก
Algo
ได้รับเครื่องเมื่อวานครับ spidy.gif spidy.gif spidy.gif
ก็ดีนะครับ แต่ทำไม ใส่ HDD 2TB ที่ช่อง D: เครื่องมองไม่เห็นง่ะครับ
แต่ถ้าใส่ช่อง C: มองเห็น ครับ 1TB มะ่มีปัญหาครับ wacko.gif
ppcboy
QUOTE(boodoopsu @ May 25 2010, 09:28 PM) *
รบกวนคุณบอยด้วยครับ
ผมมีปัญหากับ Wireless LAN
สายพ่วง Wireless LAN ที่ให้มา เสียบแล้วจะหลวมครับ
ต้องเอามือจับไว้ตลอด ถ้าปล่อยมือจะขึ้น Unplug ทันที

ผมเลยต้องต่อตรงโดยไม่มีสายพ่วง แต่ก็ใช้งานไม่ได้อยู่ดี
ตอนsetup มองเห็น SSID สามารถใส่ค่า WEB key ได้ แต่ไม่สามารถรับค่า IP จาก DHCP Server
ผมเลยลองใช้ Fix IP ก็ไม่สามารถใช้งานได้

และสังเกตุพบว่า LED ที่เสา Wireless ไม่ติดเลย msn-cry.gif

----------------------
ส่วนการใช้สาย LAN RJ45 สามารถใช้งานได้ปกติครับ


ลองปลด WEP KEY ที่ access point ออกก่อนครับ แล้ว connect ใหม่ครับ

ส่วนแท่น WiFi นั้นรบกวนส่งมาให้ผมดูหน่อยนะครับ ที่อยู่ตามกล่องเลยครับ
ppcboy
QUOTE(fozzyt @ May 25 2010, 09:54 PM) *
เครื่องใช้งานได้แล้วครับ ไม่มีปัญหา แต่ยังไม่ได้ลองดูผ่านhdd ลองแค่youtube แต่มันไม่ค่อยชัดเลยครับ แตกมาก


ต้องไม่ Zoom ครับ
ppcboy
QUOTE(Algo @ May 25 2010, 10:10 PM) *
ได้รับเครื่องเมื่อวานครับ spidy.gif spidy.gif spidy.gif
ก็ดีนะครับ แต่ทำไม ใส่ HDD 2TB ที่ช่อง D: เครื่องมองไม่เห็นง่ะครับ
แต่ถ้าใส่ช่อง C: มองเห็น ครับ 1TB มะ่มีปัญหาครับ wacko.gif


ถ้าใส่ HDD ลูกเดียวต้องใส่ที่ช่อง A ครับ
dusadee
QUOTE(dusadee @ May 25 2010, 12:39 AM) *
ได้รับของครบถ้วน ทดลองใช้งาน OK ครับ thumbups.gif

สงสัยลองมากไปหน่อย เล่นไปช่วงกลางของเรื่องหยุดเล่นไปเฉยๆ แล้วไปอยู่ที่หน้าเมนู ลองพักเครื่องแล้วเล่นใหม่ก็ปกติ
ตอนแรกเข้าใจว่าไฟล์หนังไม่ดีแต่ลองแล้วก็ดูได้จนจบเรื่อง สงสัย switch ด้านหลังใช้งานยังไง ลองโยกตำแหน่งก็ไม่มีอะไรต่างเลย whistling.gif
ppcboy
QUOTE(dusadee @ May 25 2010, 11:10 PM) *
QUOTE(dusadee @ May 25 2010, 12:39 AM) *
ได้รับของครบถ้วน ทดลองใช้งาน OK ครับ thumbups.gif

สงสัยลองมากไปหน่อย เล่นไปช่วงกลางของเรื่องหยุดเล่นไปเฉยๆ แล้วไปอยู่ที่หน้าเมนู ลองพักเครื่องแล้วเล่นใหม่ก็ปกติ
ตอนแรกเข้าใจว่าไฟล์หนังไม่ดีแต่ลองแล้วก็ดูได้จนจบเรื่อง สงสัย switch ด้านหลังใช้งานยังไง ลองโยกตำแหน่งก็ไม่มีอะไรต่างเลย whistling.gif


ใช้เมื่อเราต่อ e-SATA กับ PC ครับ
โดยกดมาอยู่ทางตัวอักษร HDD A-B จะอ่าน HDD ช่อง B
ตรงข้ามก็เป็นช่อง A ครับ
peeony
Xtremer pro มีของเลยไหมครับ
fozzyt
QUOTE(ppcboy @ May 25 2010, 11:00 PM) *
QUOTE(fozzyt @ May 25 2010, 09:54 PM) *
เครื่องใช้งานได้แล้วครับ ไม่มีปัญหา แต่ยังไม่ได้ลองดูผ่านhdd ลองแค่youtube แต่มันไม่ค่อยชัดเลยครับ แตกมาก


ต้องไม่ Zoom ครับ


ผมก็ไม่ได้กดซูมนะ กดเข้าไปดูเฉยๆ
ppcboy
QUOTE(peeony @ May 25 2010, 11:46 PM) *
Xtremer pro มีของเลยไหมครับ


ตอนนี้ของหมดครับ สนใจลงชื่อจองได้ที่ ppcboy@gmail.com
ไม่มีค่าใช้จ่ายในการจองครับ whistling.gif
ppcboy
QUOTE(fozzyt @ May 26 2010, 12:27 AM) *
QUOTE(ppcboy @ May 25 2010, 11:00 PM) *
QUOTE(fozzyt @ May 25 2010, 09:54 PM) *
เครื่องใช้งานได้แล้วครับ ไม่มีปัญหา แต่ยังไม่ได้ลองดูผ่านhdd ลองแค่youtube แต่มันไม่ค่อยชัดเลยครับ แตกมาก


ต้องไม่ Zoom ครับ


ผมก็ไม่ได้กดซูมนะ กดเข้าไปดูเฉยๆ


เป็นภาพเต็มจอหรือเปล่าครับ
fozzyt
QUOTE(ppcboy @ May 26 2010, 01:08 AM) *
QUOTE(fozzyt @ May 26 2010, 12:27 AM) *
QUOTE(ppcboy @ May 25 2010, 11:00 PM) *
QUOTE(fozzyt @ May 25 2010, 09:54 PM) *
เครื่องใช้งานได้แล้วครับ ไม่มีปัญหา แต่ยังไม่ได้ลองดูผ่านhdd ลองแค่youtube แต่มันไม่ค่อยชัดเลยครับ แตกมาก


ต้องไม่ Zoom ครับ


ผมก็ไม่ได้กดซูมนะ กดเข้าไปดูเฉยๆ


เป็นภาพเต็มจอหรือเปล่าครับ


เต็มครับ
fozzyt
อีกเรื่องนึงครับ ผมโอนไฟล์เข้าhddผ่านesataที่มันแถมให้อ่ะครับ ช้ากว่าที่คิดไว้เยอะเลย ตอนแรกความเร็วอยู่ที่ 50mb/sec แล้วความเร็วมันจะตกเหลือประมาณ25mb/sec เองครับ
boodoopsu
QUOTE(ppcboy @ May 25 2010, 10:59 PM) *
QUOTE(boodoopsu @ May 25 2010, 09:28 PM) *
รบกวนคุณบอยด้วยครับ
ผมมีปัญหากับ Wireless LAN
สายพ่วง Wireless LAN ที่ให้มา เสียบแล้วจะหลวมครับ
ต้องเอามือจับไว้ตลอด ถ้าปล่อยมือจะขึ้น Unplug ทันที

ผมเลยต้องต่อตรงโดยไม่มีสายพ่วง แต่ก็ใช้งานไม่ได้อยู่ดี
ตอนsetup มองเห็น SSID สามารถใส่ค่า WEB key ได้ แต่ไม่สามารถรับค่า IP จาก DHCP Server
ผมเลยลองใช้ Fix IP ก็ไม่สามารถใช้งานได้

และสังเกตุพบว่า LED ที่เสา Wireless ไม่ติดเลย msn-cry.gif

----------------------
ส่วนการใช้สาย LAN RJ45 สามารถใช้งานได้ปกติครับ


ลองปลด WEP KEY ที่ access point ออกก่อนครับ แล้ว connect ใหม่ครับ

ส่วนแท่น WiFi นั้นรบกวนส่งมาให้ผมดูหน่อยนะครับ ที่อยู่ตามกล่องเลยครับ


ปกติผมจะ Secure ด้วย WEB key และ Lock MAC ด้วย
เมื่อคืนก็ลองเปิด allows ทุก MAC และปลด WEB key แล้ว
ก็ไม่สามารถรับ IP จาก DHCP
เลยลองใส่ FIX IP ตรงๆ ก็ใส่ได้สำเร็จ
แต่ก็ยังใช้ไม่ได้อยู่ดี

แต่เมือคืนผมยังไม่ได้ลอง reset AP
เดี๋ยวเย็นนี้กลับไปลองอีกที

ปกติถ้าเครื่องรับรู้การต่อ Wireless แล้ว ( จากการที่เครื่องสามารถมองเห็น SSID )
LED ที่เสา Wireless มันควรจะมีไฟติดหรือกะพริบบ้างมั๊ยครับ

สิ่งที่ผมกลัวคือ มันจะเสียที่ Physical USB Host ด้านหลังของตัวเครื่องน่ะครับ ถ้าเป็นอย่างนี้งานเข้าเลย
และถ้าผมจะลองเปลี่ยนมาเสียบด้านหน้าจะได้หรือเปล่า เพราะในคู่มือแนะนำให้เสียบด้านหลัง msn-cry.gif


Phuriphan
QUOTE(ppcboy @ May 25 2010, 08:21 AM) *
QUOTE(Phuriphan @ May 25 2010, 07:55 AM) *
QUOTE(Phuriphan @ May 23 2010, 09:23 PM) *
รบกวนสอบถามคุณบอยคับ

หลังจากใช้ Xtreamer มา 3 เดือน ก็ปกติดี แต่วันนี้พบปัญหามาสอบถามคับ

ผมดูหนัง Lord of the Ring I เป็นไฟล์ mkv ได้ประมาณครึ่งเรื่องปรากฎว่าภาพเริ่มเป็น motion มีแตกพิเซลบ้าง เบลอบ้าง สลับกันไป
และที่มุมบนขวาขอจอภาพ มีอักษรสีแดงกระพริบว่า ไม่รองรับ GMC ???? มันคืออะไรคับ

ลองแก้ทั้งปิดและเปิดใหม่ก็ไม่หาย กลับไปดูเรื่องอื่นก็ปกติดี กลับมาเรื่องเดิมตำแหน่งเดิมก็เป็นอีก

msn-cry.gif


คุณบอยพอจะทราบวิธีแก้มั๊ยคับ

เพราะลองอีกกี่ครั้งก็ยังเป็นที่จุดเดิม

ยังไงรบกวนช่วยตอบด้วย rolleyes.gif rolleyes.gif rolleyes.gif


Unsupport GMC เกิดจาก GMC มีค่าเท่ากับ 3 warppoints

แต่ส่วนมากผมเห็นเป็นกับไฟล์ avi และยังไม่เคยเห็นกับ mkv
หากใช้ mediainfo ตรวจสอบจะเป็นดังนี้ครับ

Video
ID : 0
Format : MPEG-4 Visual
Format profile : Advanced Simple@L5
Format settings, BVOP : Yes
Format settings, QPel : Yes
Format settings, GMC : 3 warppoints
Format settings, Matrix : Default (MPEG)
Muxing mode : Packed bitstream
Codec ID : XVID
Codec ID/Hint :
Duration : 1h 34mn
Bit rate : 1 606 Kbps
Width : 704 pixels
Height : 384 pixels
Display aspect ratio : 16:9
Frame rate : 25.000 fps
Resolution : 8 bits
Colorimetry : 4:2:0
Scan type : Progressive
Bits/(Pixel*Frame) : 0.238
Stream size : 1.06 GiB (91%)
Writing library : XviD 1.1.0 (UTC 2005-11-22)

รบกวนขอรายละเอียดด้วย mediainfo ด้วยครับ


eneral
Complete name : K:\VIDEO\Harry Potter.I.The Philosopher's Stone.1080p.DTSx264.Sound+SubThai -Tulz [12.6GB]\Harry Potte.I. The Philosopher's Stone.1080p.DTSx264.Sound+SubThai -Tulz.mkv
Format : Matroska
File size : 12.6 GiB
Duration : 2h 29mn
Overall bit rate : 12.1 Mbps
Encoded date : UTC 2009-01-09 06:56:34
Writing application : mkvmerge v2.2.0 ('Turn It On Again') built on Mar 4 2008 12:58:26
Writing library : libebml v0.7.7 + libmatroska v0.8.1

Video
ID : 1
Format : AVC
Format/Info : Advanced Video Codec
Format profile : High@L4.1
Format settings, CABAC : Yes
Format settings, ReFrames : 5 frames
Muxing mode : Container profile=Unknown@4.1
Codec ID : V_MPEG4/ISO/AVC
Duration : 2h 28mn
Bit rate : 9 918 Kbps
Nominal bit rate : 10.1 Mbps
Width : 1 920 pixels
Height : 800 pixels
Display aspect ratio : 2.40:1
Frame rate : 23.976 fps
Resolution : 8 bits
Colorimetry : 4:2:0
Scan type : Progressive
Bits/(Pixel*Frame) : 0.269
Stream size : 10.3 GiB (82%)
Title : Harry Potter and the Sorcerer's Stone (2001)
Writing library : x264 core 57 svn-721
Encoding settings : cabac=1 / ref=5 / deblock=1:0:0 / analyse=0x3:0x113 / me=umh / subme=6 / brdo=1 / mixed_ref=1 / me_range=16 / chroma_me=1 / trellis=1 / 8x8dct=1 / cqm=0 / deadzone=21,11 / chroma_qp_offset=0 / threads=6 / nr=0 / decimate=1 / mbaff=0 / bframes=3 / b_pyramid=1 / b_adapt=1 / b_bias=0 / direct=1 / wpredb=1 / bime=1 / keyint=250 / keyint_min=25 / scenecut=40(pre) / rc=2pass / bitrate=10061 / ratetol=1.0 / rceq='blurCplx^(1-qComp)' / qcomp=0.60 / qpmin=10 / qpmax=51 / qpstep=4 / cplxblur=20.0 / qblur=0.5 / ip_ratio=1.40 / pb_ratio=1.30
Language : English
ppcboy
QUOTE(fozzyt @ May 26 2010, 02:04 AM) *
อีกเรื่องนึงครับ ผมโอนไฟล์เข้าhddผ่านesataที่มันแถมให้อ่ะครับ ช้ากว่าที่คิดไว้เยอะเลย ตอนแรกความเร็วอยู่ที่ 50mb/sec แล้วความเร็วมันจะตกเหลือประมาณ25mb/sec เองครับ


ความเร็วอาจขึ้นอยู่กับ Spec เครื่อง PC และ HDD ด้วยครับ
ที่เมืองนอกมีคนทดสอบได้ประมาณ 88MB/s

ผลการทดสอบของ spaceshuttle
http://forum.xtreamer.net/viewtopic.php?f=176&t=14952

and this is the total list of speeds:

pc to usb xtpro = max 55MB/s avarage = 28MB/s
etrayz by lan to xtpro = max 15MB/s avarage= 8MB/s
pc esata to esata xtpro= max 106MB/s avarage 88MB/s

this concludes that if you copy 1 video dvd 4.7gb :
pc to xtpro by usb = 3 minutes
etrayz lan to xtpro = 10 minutes
pc esata to xtpro Esata = 1 min 30 seconds
ppcboy
QUOTE(boodoopsu @ May 26 2010, 09:09 AM) *
QUOTE(ppcboy @ May 25 2010, 10:59 PM) *
QUOTE(boodoopsu @ May 25 2010, 09:28 PM) *
รบกวนคุณบอยด้วยครับ
ผมมีปัญหากับ Wireless LAN
สายพ่วง Wireless LAN ที่ให้มา เสียบแล้วจะหลวมครับ
ต้องเอามือจับไว้ตลอด ถ้าปล่อยมือจะขึ้น Unplug ทันที

ผมเลยต้องต่อตรงโดยไม่มีสายพ่วง แต่ก็ใช้งานไม่ได้อยู่ดี
ตอนsetup มองเห็น SSID สามารถใส่ค่า WEB key ได้ แต่ไม่สามารถรับค่า IP จาก DHCP Server
ผมเลยลองใช้ Fix IP ก็ไม่สามารถใช้งานได้

และสังเกตุพบว่า LED ที่เสา Wireless ไม่ติดเลย msn-cry.gif

----------------------
ส่วนการใช้สาย LAN RJ45 สามารถใช้งานได้ปกติครับ


ลองปลด WEP KEY ที่ access point ออกก่อนครับ แล้ว connect ใหม่ครับ

ส่วนแท่น WiFi นั้นรบกวนส่งมาให้ผมดูหน่อยนะครับ ที่อยู่ตามกล่องเลยครับ


ปกติผมจะ Secure ด้วย WEB key และ Lock MAC ด้วย
เมื่อคืนก็ลองเปิด allows ทุก MAC และปลด WEB key แล้ว
ก็ไม่สามารถรับ IP จาก DHCP
เลยลองใส่ FIX IP ตรงๆ ก็ใส่ได้สำเร็จ
แต่ก็ยังใช้ไม่ได้อยู่ดี

แต่เมือคืนผมยังไม่ได้ลอง reset AP
เดี๋ยวเย็นนี้กลับไปลองอีกที

ปกติถ้าเครื่องรับรู้การต่อ Wireless แล้ว ( จากการที่เครื่องสามารถมองเห็น SSID )
LED ที่เสา Wireless มันควรจะมีไฟติดหรือกะพริบบ้างมั๊ยครับ

สิ่งที่ผมกลัวคือ มันจะเสียที่ Physical USB Host ด้านหลังของตัวเครื่องน่ะครับ ถ้าเป็นอย่างนี้งานเข้าเลย
และถ้าผมจะลองเปลี่ยนมาเสียบด้านหน้าจะได้หรือเปล่า เพราะในคู่มือแนะนำให้เสียบด้านหลัง msn-cry.gif




-เรื่องไฟที่เสานั้นไม่แน่ใจเหมือนกันครับ ขอกลับไปลองสังเกตก่อนครับ
-Port USB ที่ด้านหลัง ลองเอาพวก Thumb Drive มาเสียบดูก่อนครับว่าหลวมหรือไม่
ถ้าหลวมก็เป็นที่ตัวเครื่อง ถ้าไม่หลวมก็น่าจะเป็นที่หัว USB ของแท่นเสียบเสา
-Port USB ด้านหน้าสามารถใช้ได้เหมือนกับด้านหลังครับ ลองเสียบเสาเข้าไปเลยโดยที่ไม่ต้องใช้แท่นเสียบดูครับ

บางทีอาจจะเป็นที่แท่นเสียบก็ได้ครับ
ppcboy
QUOTE(Phuriphan @ May 26 2010, 09:34 AM) *
QUOTE(ppcboy @ May 25 2010, 08:21 AM) *
QUOTE(Phuriphan @ May 25 2010, 07:55 AM) *
QUOTE(Phuriphan @ May 23 2010, 09:23 PM) *
รบกวนสอบถามคุณบอยคับ

หลังจากใช้ Xtreamer มา 3 เดือน ก็ปกติดี แต่วันนี้พบปัญหามาสอบถามคับ

ผมดูหนัง Lord of the Ring I เป็นไฟล์ mkv ได้ประมาณครึ่งเรื่องปรากฎว่าภาพเริ่มเป็น motion มีแตกพิเซลบ้าง เบลอบ้าง สลับกันไป
และที่มุมบนขวาขอจอภาพ มีอักษรสีแดงกระพริบว่า ไม่รองรับ GMC ???? มันคืออะไรคับ

ลองแก้ทั้งปิดและเปิดใหม่ก็ไม่หาย กลับไปดูเรื่องอื่นก็ปกติดี กลับมาเรื่องเดิมตำแหน่งเดิมก็เป็นอีก

msn-cry.gif


คุณบอยพอจะทราบวิธีแก้มั๊ยคับ

เพราะลองอีกกี่ครั้งก็ยังเป็นที่จุดเดิม

ยังไงรบกวนช่วยตอบด้วย rolleyes.gif rolleyes.gif rolleyes.gif


Unsupport GMC เกิดจาก GMC มีค่าเท่ากับ 3 warppoints

แต่ส่วนมากผมเห็นเป็นกับไฟล์ avi และยังไม่เคยเห็นกับ mkv
หากใช้ mediainfo ตรวจสอบจะเป็นดังนี้ครับ

Video
ID : 0
Format : MPEG-4 Visual
Format profile : Advanced Simple@L5
Format settings, BVOP : Yes
Format settings, QPel : Yes
Format settings, GMC : 3 warppoints
Format settings, Matrix : Default (MPEG)
Muxing mode : Packed bitstream
Codec ID : XVID
Codec ID/Hint :
Duration : 1h 34mn
Bit rate : 1 606 Kbps
Width : 704 pixels
Height : 384 pixels
Display aspect ratio : 16:9
Frame rate : 25.000 fps
Resolution : 8 bits
Colorimetry : 4:2:0
Scan type : Progressive
Bits/(Pixel*Frame) : 0.238
Stream size : 1.06 GiB (91%)
Writing library : XviD 1.1.0 (UTC 2005-11-22)

รบกวนขอรายละเอียดด้วย mediainfo ด้วยครับ


eneral
Complete name : K:\VIDEO\Harry Potter.I.The Philosopher's Stone.1080p.DTSx264.Sound+SubThai -Tulz [12.6GB]\Harry Potte.I. The Philosopher's Stone.1080p.DTSx264.Sound+SubThai -Tulz.mkv
Format : Matroska
File size : 12.6 GiB
Duration : 2h 29mn
Overall bit rate : 12.1 Mbps
Encoded date : UTC 2009-01-09 06:56:34
Writing application : mkvmerge v2.2.0 ('Turn It On Again') built on Mar 4 2008 12:58:26
Writing library : libebml v0.7.7 + libmatroska v0.8.1

Video
ID : 1
Format : AVC
Format/Info : Advanced Video Codec
Format profile : High@L4.1
Format settings, CABAC : Yes
Format settings, ReFrames : 5 frames
Muxing mode : Container profile=Unknown@4.1
Codec ID : V_MPEG4/ISO/AVC
Duration : 2h 28mn
Bit rate : 9 918 Kbps
Nominal bit rate : 10.1 Mbps
Width : 1 920 pixels
Height : 800 pixels
Display aspect ratio : 2.40:1
Frame rate : 23.976 fps
Resolution : 8 bits
Colorimetry : 4:2:0
Scan type : Progressive
Bits/(Pixel*Frame) : 0.269
Stream size : 10.3 GiB (82%)
Title : Harry Potter and the Sorcerer's Stone (2001)
Writing library : x264 core 57 svn-721
Encoding settings : cabac=1 / ref=5 / deblock=1:0:0 / analyse=0x3:0x113 / me=umh / subme=6 / brdo=1 / mixed_ref=1 / me_range=16 / chroma_me=1 / trellis=1 / 8x8dct=1 / cqm=0 / deadzone=21,11 / chroma_qp_offset=0 / threads=6 / nr=0 / decimate=1 / mbaff=0 / bframes=3 / b_pyramid=1 / b_adapt=1 / b_bias=0 / direct=1 / wpredb=1 / bime=1 / keyint=250 / keyint_min=25 / scenecut=40(pre) / rc=2pass / bitrate=10061 / ratetol=1.0 / rceq='blurCplx^(1-qComp)' / qcomp=0.60 / qpmin=10 / qpmax=51 / qpstep=4 / cplxblur=20.0 / qblur=0.5 / ip_ratio=1.40 / pb_ratio=1.30
Language : English


เท่าที่เคย search ใน google ผมเองยังไม่เคยเห็นปัญหา GMC กับ mkv ครับ
เนื่องจากใน Format Setting ของ mkv จะไม่ได้พูดถึง GMC โดยจะเห็นได้ว่ารายละเอียดข้างต้นจะไม่พูดถึง GMC เช่นกัน

ปัญหามักเกิดกับพวกไฟล์ avi ที่ set ค่า GMC เป็น 3 warppoint ทำให้เครื่องเล่นภาพไม่ไหว

แก้ไขโดย re encode ใหม่ครับ

แต่ case ของ mkv ที่ท่านเจอปัญหา แนะนำให้หาโหลดไฟล์อื่นครับ เพราะไฟล์นี้ไม่น่าแก้ไขเองได้ครับ
kopking
ได้รับ Adapter เรียบร้อยแล้วครับ

ขอบคุณ คุณบอยมากครับ

เดี๋ยวตัวเก่าจะส่งกลับไปให้ครับ แล้วจะแจ้งทางเมล นะครับ
ppcboy
QUOTE(kopking @ May 26 2010, 01:23 PM) *
ได้รับ Adapter เรียบร้อยแล้วครับ

ขอบคุณ คุณบอยมากครับ

เดี๋ยวตัวเก่าจะส่งกลับไปให้ครับ แล้วจะแจ้งทางเมล นะครับ


thumbups.gif
ppcboy
มีวิธีที่จะป้อนคำภาษาไทยเหมือนกันครับแต่ค่อนข้างยุ่งนิดนึง
ถ้าจะทำก็เลือกกลุ่มคำที่เราใช้ในการค้นหาบ่อยๆแล้วป้อนเข้าไปนะครับ

Credit ท่าน chukiat_h(thaidvd.net)

1ใช้เวป เปิดที่ ip ของ xtreamer
2 เลือกคำว่า setup
3 เลือกหัวข้อ live
4 คลิ๊กปุ่มคำว่า make
5 มันจะขึ้นหน้าต่างใหม่ขึ้นมาให้ป้อนคำไทยที่ต้องการจะหาบ่อยๆลงไป สามารถป้อนได้หลายคำ แต่ ละคำต้องอยู่คนละบรรทัดนะครับหลังจากป้อนเสร็จ
ุ6 คลิ๊กที่ปุ่ม save เป็นดันเรียบร้อย

วิธีใช้
เข้าไปที่
you tube search video ก็จะเป็นหน้าจอที่ให้ป้อนข้อความเป็นภาษาอังกฤษ ให้เรากดปุ่ม keyword (จะอยู่้ใต้ปุ่ม del) มันก็จะขึ้นข้อความภาษาไทยที่เราได้บันทึกไว้ขึ้นมา ถ้ากด keyword อีกครั้งก็จะขึ้นคำถัดไป แค่นี้เราก็สามารถค้นหาด้วยคำไทยได้แล้ว


อีกวิธี แต่วิธีนี้ต้องใช้คู่กับคอมตลอด
1 เข้าที่ you tube search video ก็จะเป็นหน้าจอที่ให้ป้อนข้อความเป็นภาษาอังกฤษ
2 ใช้เวป เปิดที่ ip ของ xtreamer
3 เลือก rc2
4 จะมีหน้าจอรีโหมดขึ้นมา ด้านล่างเราสามารถคีย์ข้อความภาษาไทยได้ คีย์ข้อความที่ต้องการหาแล้วกด go
5 หน้าจอโทรทัศน์ก็จะขึ้นคำที่เราพิมพ์ขึ้นมาแล้วก็กด ok

การที่จะใช้ web ของ Xtreamer Pro ได้นั้นต้องเข้าไป on การทำงานของ web server ก่อน
Setting-->App-->Web server-->on
ppcboy
เนื่องจาก Xtreamer Pro ไม่มี Switch ที่ตัวเครื่อง
ดังนั้นการเเปิด-ปิด ต้องสั่งงานที่รีโมตเท่านั้นครับ
โดยกดปุ่มส้มซ้ายบนสุด





ppcboy
ของเล่นใหม่

POPCORN A-200 ราคาพิเศษ 6,900 + Free EMS


สำหรับคนที่อยากเล่น Chipset Sigma ในราคาสบายกระเป๋า
MoonPhase
QUOTE(ppcboy @ May 26 2010, 02:51 PM) *
ของเล่นใหม่

POPCORN A-200 ราคาพิเศษ 6,900 + Free EMS


สำหรับคนที่อยากเล่น Chipset Sigma ในราคาสบายกระเป๋า


ภาพเป็นไงบ้างครับ เทียบกับ xt pro
ppcboy
QUOTE(MoonPhase @ May 26 2010, 03:31 PM) *
QUOTE(ppcboy @ May 26 2010, 02:51 PM) *
ของเล่นใหม่

POPCORN A-200 ราคาพิเศษ 6,900 + Free EMS


สำหรับคนที่อยากเล่น Chipset Sigma ในราคาสบายกระเป๋า


ภาพเป็นไงบ้างครับ เทียบกับ xt pro

ยังไม่มีเวลาลองเลยครับ msn-cry.gif
boodoopsu
แจ้งเรื่อง ปัญหา Xtreamer ที่เจอครับ msn-cry.gif

1. คิดว่า WLAN น่าจะมีปัญหา

-ปลด WEB key แล้ว ก็ใช้ไม่ได้
-ผมลองมาเสียบ WLAN ด้านหน้าก็ใช้ไม่ได้
-ส่วน USB Host ด้านหลัง ลองเสียบ USB FLASH Drive ดูแล้วใช้ได้ไม่มีปัญหาครับ
-ลองเอาWLAN มาใช้กับ Notebook ก็ไม่มีอาการ detect อะไรเลย และลองลง Driver WLAN ของ realtek 8192U(Win7) ก็ไม่เจอ WLAN card เลย

ผมจะส่งกลับไปให้คุณบอย ทั้ง WLAN และฐานรองครับ

2. Menu บางรายการหายไป
-Menu Internet ของผมไม่มีข้อมูลอะไรเลย ว่าจะลองYoutube ซะหน่อย ต้องแก้ไขอย่างไรครับ
-Menu Internet Radio บางสถานีเล่นได้ แต่บางสถานีกดแล้วหน้าจอดับหายไปเลย

(คุณบอยทำงานอยู่แถวไหนครับ
เผื่อว่าพรุ่งนี้ผมออกไปแถวสีลม ถ้ามีเวลาจะได้เอาของไปเปลี่ยนเลย)
Dead Man
QUOTE(ppcboy @ May 26 2010, 03:49 PM) *
QUOTE(MoonPhase @ May 26 2010, 03:31 PM) *
QUOTE(ppcboy @ May 26 2010, 02:51 PM) *
ของเล่นใหม่

POPCORN A-200 ราคาพิเศษ 6,900 + Free EMS


สำหรับคนที่อยากเล่น Chipset Sigma ในราคาสบายกระเป๋า


ภาพเป็นไงบ้างครับ เทียบกับ xt pro

ยังไม่มีเวลาลองเลยครับ msn-cry.gif


รอด้วยคนครับใช้ชิปตัวเดียวกับ Dune ซะด้วยราคาถูกกว่าน่าสนครับ
ppcboy
QUOTE(boodoopsu @ May 26 2010, 08:38 PM) *
แจ้งเรื่อง ปัญหา Xtreamer ที่เจอครับ msn-cry.gif

1. คิดว่า WLAN น่าจะมีปัญหา

-ปลด WEB key แล้ว ก็ใช้ไม่ได้
-ผมลองมาเสียบ WLAN ด้านหน้าก็ใช้ไม่ได้
-ส่วน USB Host ด้านหลัง ลองเสียบ USB FLASH Drive ดูแล้วใช้ได้ไม่มีปัญหาครับ
-ลองเอาWLAN มาใช้กับ Notebook ก็ไม่มีอาการ detect อะไรเลย และลองลง Driver WLAN ของ realtek 8192U(Win7) ก็ไม่เจอ WLAN card เลย

ผมจะส่งกลับไปให้คุณบอย ทั้ง WLAN และฐานรองครับ

2. Menu บางรายการหายไป
-Menu Internet ของผมไม่มีข้อมูลอะไรเลย ว่าจะลองYoutube ซะหน่อย ต้องแก้ไขอย่างไรครับ
-Menu Internet Radio บางสถานีเล่นได้ แต่บางสถานีกดแล้วหน้าจอดับหายไปเลย

(คุณบอยทำงานอยู่แถวไหนครับ
เผื่อว่าพรุ่งนี้ผมออกไปแถวสีลม ถ้ามีเวลาจะได้เอาของไปเปลี่ยนเลย)


ลองทดสอบตามที่คุยกันครับ ส่วนเรื่องของเสาพรุ่งนี้ผมส่งตัวใหม่ให้ครับ

whistling.gif
ppcboy
QUOTE(Dead Man @ May 26 2010, 09:57 PM) *
QUOTE(ppcboy @ May 26 2010, 03:49 PM) *
QUOTE(MoonPhase @ May 26 2010, 03:31 PM) *
QUOTE(ppcboy @ May 26 2010, 02:51 PM) *
ของเล่นใหม่

POPCORN A-200 ราคาพิเศษ 6,900 + Free EMS


สำหรับคนที่อยากเล่น Chipset Sigma ในราคาสบายกระเป๋า


ภาพเป็นไงบ้างครับ เทียบกับ xt pro

ยังไม่มีเวลาลองเลยครับ msn-cry.gif


รอด้วยคนครับใช้ชิปตัวเดียวกับ Dune ซะด้วยราคาถูกกว่าน่าสนครับ


kapook-9243-9853.gif
condom666
QUOTE(ppcboy @ May 26 2010, 02:51 PM) *
ของเล่นใหม่

POPCORN A-200 ราคาพิเศษ 6,900 + Free EMS


สำหรับคนที่อยากเล่น Chipset Sigma ในราคาสบายกระเป๋า


ว้าว ว้าว clap.gif clap.gif
ppcboy
QUOTE(condom666 @ May 26 2010, 11:45 PM) *
QUOTE(ppcboy @ May 26 2010, 02:51 PM) *
ของเล่นใหม่

POPCORN A-200 ราคาพิเศษ 6,900 + Free EMS


สำหรับคนที่อยากเล่น Chipset Sigma ในราคาสบายกระเป๋า


ว้าว ว้าว clap.gif clap.gif

ป๋าครับ หักห้ามใจบ้างเถอะครับ แบบว่าป๋าซื้อทุกอย่างที่ผมขายเลยครับ
ผมรู้สึกเกรงใจคนที่บ้านป๋ามากเลยครับ huh.gif
nyuclub69
สนใจ Xtreamer Pro อ่ะครับ ขอรายละเอียดสั่งซื้อด้วยครับ rolleyes.gif
boodoopsu
QUOTE(ppcboy @ May 26 2010, 10:54 PM) *
QUOTE(boodoopsu @ May 26 2010, 08:38 PM) *
แจ้งเรื่อง ปัญหา Xtreamer ที่เจอครับ msn-cry.gif

1. คิดว่า WLAN น่าจะมีปัญหา

-ปลด WEB key แล้ว ก็ใช้ไม่ได้
-ผมลองมาเสียบ WLAN ด้านหน้าก็ใช้ไม่ได้
-ส่วน USB Host ด้านหลัง ลองเสียบ USB FLASH Drive ดูแล้วใช้ได้ไม่มีปัญหาครับ
-ลองเอาWLAN มาใช้กับ Notebook ก็ไม่มีอาการ detect อะไรเลย และลองลง Driver WLAN ของ realtek 8192U(Win7) ก็ไม่เจอ WLAN card เลย

ผมจะส่งกลับไปให้คุณบอย ทั้ง WLAN และฐานรองครับ

2. Menu บางรายการหายไป
-Menu Internet ของผมไม่มีข้อมูลอะไรเลย ว่าจะลองYoutube ซะหน่อย ต้องแก้ไขอย่างไรครับ
-Menu Internet Radio บางสถานีเล่นได้ แต่บางสถานีกดแล้วหน้าจอดับหายไปเลย

(คุณบอยทำงานอยู่แถวไหนครับ
เผื่อว่าพรุ่งนี้ผมออกไปแถวสีลม ถ้ามีเวลาจะได้เอาของไปเปลี่ยนเลย)


ลองทดสอบตามที่คุยกันครับ ส่วนเรื่องของเสาพรุ่งนี้ผมส่งตัวใหม่ให้ครับ

whistling.gif


เมื่อคืนได้คุยคุณบอย ต้องชมว่าดูแลลูกค้าดีมากๆครับ
คุณบอยเป็นมากกว่าคนค้าขาย สำหรับผม คุณบอยเป็นมิตรที่แบ่งปันสิ่งดีๆให้แก่กันครับ
เมื่อคืนก็ได้ลองเอามาต่อกับ Notebook (Win7) ก็ไม่มีอะไรเกิดขึ้นเลย เงียบสนิท ( Driver ยังเป็น Beta)
ก็เลยสรุปไปว่ามันน่าจะมีปัญหาทั้งฐานรองและ WLAN

รายงานผลต่อเนื่อง

ใช้ RJ45 ต่อ LAN เพื่อทดสอบ Internet
(โดยลองทั้ง 2 วิธี คือใช้ DHCP และ FIX IP FIX DNS ได้ผลเหมือนกัน)

-Menu Internet ก็ยังไม่มี YouTube และเมนูย่อย ไม่ทราบว่าเป็นเพราะอะไร
-แต่ Internet Radio ใช้ได้ดี
-ใช้ RC2 เป็น remote ควบคุม XT Pro ผ่าน IE บน Notebook
อันนี้ชอบมากเลยครับ ทำงานไปด้วย กดรีโมทที่ PC ด้วย สะดวกดี

เช้านี้ ทดสอบต่อเนื่อง

ลองเอา WLAN มาต่อกับเครื่องที่ทำงาน( WinXP)
ผล..........LED ติดครับ มองเห็น SSID แต่เนื่องจากติดเรื่อง Secure ของที่ทำงาน เลยไม่สามารถต่อเข้าใช้งานจริงๆได้

ส่วนฐานรอง มีปัญหาแน่ๆ คือ หลวมครับ ใช้แล้วติดๆดับๆ
ข้อสังเกตที่พบอีกอย่าง เมื่อสักครู่คือ ถ้าใช้ WLAN ต่อตรงที่ USB ขอ PC เลย โดยไม่ใช้ฐานรอง จะร้อนมากๆ
น่าจะเป็นอีกเหตผลที่ Xtreamer ให้ฐานรองมา

ตกลงไม่รู้ว่าปัญหาเกิดจากอะไรแน่ๆ
ข้อสังเกตอีกอย่างคือ XT Pro ตัวนี้ ใช้ Firmware 2.3.3
ของท่านอื่นมีใครใช้ XT Pro ร่วมกับ WLAN บ้างมั๊ยครับ
รบกวนมาแชร์ข้อมูลกันหน่อย
boodoopsu
ผมไปอ่านเจอแบบนี้มา หรือว่ามันมีปัญหาเรื่อง Internet Video จริงๆ ครับ

http://forum.xtreamer.net/viewtopic.php?f=...&view=print

Author: style="color: #000000">Bexman [ Wed Mar 03, 2010 10:58 pm ]
Post subject: Re: XtreamerPro Discussion
As far as I'm aware devices have to have a license in the future to be able to play Youtube videos - seems to be, that this might be the problem why the current Xtreamer doesn't play any Youtube videos anymore.

Will the XT Pro have an according license to ascertain that this will be fixed?

Regards,
Bexman
Author: vortex [ Thu Mar 04, 2010 9:05 am ]
Post subject: Re: XtreamerPro Discussion
No, its very likely that Pro will not have Youtube at all, and it will be removed from Xtreamer 2.5" menu also when V3 firmware comes.
Perhaps community devs manage to create some workaround, but im sure there wont be any official Youtube access.
Author: Bexman [ Thu Mar 04, 2010 10:33 am ]
Post subject: Re: XtreamerPro Discussion
Thank you, vortex.

Your answers here are very helpful. I just wanted to recommend Xtreamer to stop advertising with Youtube Access to prevent any discussions (and probably some legal disputes) about falsely advertised decriptions - as it is the case with HD Audio right now, when I noticed the hint on the XT Pro Site: Youtube support will be disabled with the coming FW Update due to requests from Youtube.

Good to see that XT stops advertising with it, though I wish that there would be an option to enable Youtube access again (maybe it would be an option, to offer Youtube access as optional, for customers who are willing to license their device?).

Regards,
Bexman
num052
ไม่ทราบว่าผมต่อ usb host เชื่อมกับ notebook ในขณะดูหนังได้ไม๊ครับ
ถ้าได้จะได้ load bit ใส่ hdd xt pro ไปด้วย ดูหนังไปด้วยครับ (hdd notebook มันเต็มน่ะครับ)
boodoopsu
QUOTE(num052 @ May 27 2010, 03:00 PM) *
ไม่ทราบว่าผมต่อ usb host เชื่อมกับ notebook ในขณะดูหนังได้ไม๊ครับ
ถ้าได้จะได้ load bit ใส่ hdd xt pro ไปด้วย ดูหนังไปด้วยครับ (hdd notebook มันเต็มน่ะครับ)


มารอดูคำตอบด้วยคน

อาการเดียวกันเลย HDD Notebook เต็ม
แต่ผมว่าใช้ External 2.5" แยกอีกตัวดีกว่า
เวลาไม่ได้บิทจะได้แยกเก็บมิดชิด
เผื่อมีลูกเล็กเด็กแดงแอบเข้าไปดูจะยุ่ง อิอิอิ
บิทเสร็จ เอาฝากเพื่อนๆที่ทำงานก็สะดวก
ppcboy
QUOTE(num052 @ May 27 2010, 03:00 PM) *
ไม่ทราบว่าผมต่อ usb host เชื่อมกับ notebook ในขณะดูหนังได้ไม๊ครับ
ถ้าได้จะได้ load bit ใส่ hdd xt pro ไปด้วย ดูหนังไปด้วยครับ (hdd notebook มันเต็มน่ะครับ)


ไม่ได้ครับ เพราะถ้าเสียบ USB HOST หรือ eSATA เครื่องจะเปลี่ยนเป็นโหมด HDD ทันทีครับ

อาจต้องลองใช้ผ่าน network ดูครับ โดย map drive HDD ของ XT Pro ที่ PC เราครับ
ppcboy
QUOTE(boodoopsu @ May 27 2010, 10:00 AM) *
QUOTE(ppcboy @ May 26 2010, 10:54 PM) *
QUOTE(boodoopsu @ May 26 2010, 08:38 PM) *
แจ้งเรื่อง ปัญหา Xtreamer ที่เจอครับ msn-cry.gif

1. คิดว่า WLAN น่าจะมีปัญหา

-ปลด WEB key แล้ว ก็ใช้ไม่ได้
-ผมลองมาเสียบ WLAN ด้านหน้าก็ใช้ไม่ได้
-ส่วน USB Host ด้านหลัง ลองเสียบ USB FLASH Drive ดูแล้วใช้ได้ไม่มีปัญหาครับ
-ลองเอาWLAN มาใช้กับ Notebook ก็ไม่มีอาการ detect อะไรเลย และลองลง Driver WLAN ของ realtek 8192U(Win7) ก็ไม่เจอ WLAN card เลย

ผมจะส่งกลับไปให้คุณบอย ทั้ง WLAN และฐานรองครับ

2. Menu บางรายการหายไป
-Menu Internet ของผมไม่มีข้อมูลอะไรเลย ว่าจะลองYoutube ซะหน่อย ต้องแก้ไขอย่างไรครับ
-Menu Internet Radio บางสถานีเล่นได้ แต่บางสถานีกดแล้วหน้าจอดับหายไปเลย

(คุณบอยทำงานอยู่แถวไหนครับ
เผื่อว่าพรุ่งนี้ผมออกไปแถวสีลม ถ้ามีเวลาจะได้เอาของไปเปลี่ยนเลย)


ลองทดสอบตามที่คุยกันครับ ส่วนเรื่องของเสาพรุ่งนี้ผมส่งตัวใหม่ให้ครับ

whistling.gif


เมื่อคืนได้คุยคุณบอย ต้องชมว่าดูแลลูกค้าดีมากๆครับ
คุณบอยเป็นมากกว่าคนค้าขาย สำหรับผม คุณบอยเป็นมิตรที่แบ่งปันสิ่งดีๆให้แก่กันครับ
เมื่อคืนก็ได้ลองเอามาต่อกับ Notebook (Win7) ก็ไม่มีอะไรเกิดขึ้นเลย เงียบสนิท ( Driver ยังเป็น Beta)
ก็เลยสรุปไปว่ามันน่าจะมีปัญหาทั้งฐานรองและ WLAN

รายงานผลต่อเนื่อง

ใช้ RJ45 ต่อ LAN เพื่อทดสอบ Internet
(โดยลองทั้ง 2 วิธี คือใช้ DHCP และ FIX IP FIX DNS ได้ผลเหมือนกัน)

-Menu Internet ก็ยังไม่มี YouTube และเมนูย่อย ไม่ทราบว่าเป็นเพราะอะไร
-แต่ Internet Radio ใช้ได้ดี
-ใช้ RC2 เป็น remote ควบคุม XT Pro ผ่าน IE บน Notebook
อันนี้ชอบมากเลยครับ ทำงานไปด้วย กดรีโมทที่ PC ด้วย สะดวกดี

เช้านี้ ทดสอบต่อเนื่อง

ลองเอา WLAN มาต่อกับเครื่องที่ทำงาน( WinXP)
ผล..........LED ติดครับ มองเห็น SSID แต่เนื่องจากติดเรื่อง Secure ของที่ทำงาน เลยไม่สามารถต่อเข้าใช้งานจริงๆได้

ส่วนฐานรอง มีปัญหาแน่ๆ คือ หลวมครับ ใช้แล้วติดๆดับๆ
ข้อสังเกตที่พบอีกอย่าง เมื่อสักครู่คือ ถ้าใช้ WLAN ต่อตรงที่ USB ขอ PC เลย โดยไม่ใช้ฐานรอง จะร้อนมากๆ
น่าจะเป็นอีกเหตผลที่ Xtreamer ให้ฐานรองมา

ตกลงไม่รู้ว่าปัญหาเกิดจากอะไรแน่ๆ
ข้อสังเกตอีกอย่างคือ XT Pro ตัวนี้ ใช้ Firmware 2.3.3
ของท่านอื่นมีใครใช้ XT Pro ร่วมกับ WLAN บ้างมั๊ยครับ
รบกวนมาแชร์ข้อมูลกันหน่อย


ผมส่ง Wireless และ WiFi cradle ตัวใหม่ให้แล้วครับ
ลองทดสอบดูครับ
This is a "lo-fi" version of our main content. To view the full version with more information, formatting and images, please click here.
Invision Power Board © 2001-2014 Invision Power Services, Inc.